Wallander | F. Científica | ◄ Sunday 15/10 ►
Loading...
Login
Username:
Password:
[Signup]
[Recover Account]



Search





Torrent Details For "Agyaat 2009 Hindi WEB-DL x264 AAC"

Agyaat 2009 Hindi WEB-DL x264 AAC

Download torrent
Health:
Seeds: 11
Leechers: 21
Completed: 42 
Last Checked: 12-10-2017 12:27:09

 


  

Torrent Description





Quote:

==================================================================
General
Complete name               : Agyaat 2009 Hindi WEB-DL x264 AAC { TaRa }.mkv
Format                      : Matroska
Format version              : Version 4 / Version 2
File size                   : 689 MiB
Duration                    : 1 h 42 min
Overall bit rate            : 942 kb/s
===================================================================
Video
ID                          : 1
Format                      : AVC
Format/Info                 : Advanced Video Codec
Format profile              : [email protected]
Format settings             : CABAC / 3 Ref Frames
Format settings, CABAC      : Yes
Format settings, RefFrames  : 3 frames
Codec ID                    : V_MPEG4/ISO/AVC
Duration                    : 1 h 42 min
Bit rate                    : 687 kb/s
Width                       : 854 pixels
Height                      : 368 pixels
Display aspect ratio        : 2.35:1
Frame rate mode             : Constant
Frame rate                  : 24.000 FPS
Color space                 : YUV
Chroma subsampling          : 4:2:0
Bit depth                   : 8 bits
Scan type                   : Progressive
Bits/(Pixel*Frame)          : 0.091
Stream size                 : 502 MiB (73%)
Title                       : .....::::: TaRa :::::.....
Language                    : Hindi
Default                     : Yes
Forced                      : No
===================================================================
Audio
ID                          : 2
Format                      : AAC
Format/Info                 : Advanced Audio Codec
Format profile              : LC
Codec ID                    : A_AAC-2
Duration                    : 1 h 42 min
Bit rate                    : 253 kb/s
Channel(s)                  : 2 channels
Channel positions           : Front: L R
Sampling rate               : 48.0 kHz
Frame rate                  : 46.875 FPS (1024 SPF)
Compression mode            : Lossy
Stream size                 : 185 MiB (27%)
Title                       : .....::::: TaRa :::::.....
Language                    : Hindi
Default                     : Yes
Forced                      : No
===================================================================

Category>:Movies > x264
Lang:Hindi  Hindi
Total Size:688.79 MB
Info Hash:5d9212da84ff8e47b840f7204ccc24a4d555c650
Added By:planB
Date Added:12-10-2017 12:27:09


Ratings:Not Yet Rated (Log in to rate it)


Tracker:
http://ipv4.tracker.harry.lu/announce

This Torrent also has backup trackers
URLSeedersLeechersCompleted
http://ipv4.tracker.harry.lu/announce000
http://ipv4.tracker.harry.lu:80/announce000
http://45.33.11.224/announce000
http://t.nyaatracker.com/announce000
http://tracker.devil-torrents.pl:80/announce000
http://tracker.devil-torrents.pl/announce000
http://open.kickasstracker.com/announce000
http://163.172.180.68:80/announce000
http://open.kickasstracker.com:443/announce000
http://163.172.180.68/announce000
http://t.nyaatracker.com:80/announce000


File List: 


Comments

No comments still posted

Bitcoin Donate: 19iHZVxSjDgjVnZti4zTAPN32J6YhD3C1z
tomtrueheart.com FaceBook
Page Generated In 0.005603 secs.
www.tomtrueheart.com -|- -|- RSS Feed -|- Feed Info