More Details | Sneaky Pete | ►Czarna komedia
Loading...
Login
Username:
Password:
[Signup]
[Recover Account]



Search





Torrent Details For "Ratatouille (2007) 720p [Bluray]"

Ratatouille (2007) 720p [Bluray]

Download torrent
Health:
Seeds: 75
Leechers: 258
Completed: 170 
Last Checked: 12-10-2017 12:19:39

 


  

Torrent Description

imdb-http://www.imdb.com/title/tt0382932/


Format : Matroska
Video
ID : 1
Format : AVC
Format/Info : Advanced Video Codec
Format profile : [email protected]
Format settings, CABAC : Yes
Format settings, ReFrames : 8 frames
Codec ID : V_MPEG4/ISO/AVC
Duration : 1 h 49 min
Bit rate : 999 kb/s
Width : 1 280 pixels
Height : 544 pixels
Display aspect ratio : 2.35:1
Frame rate mode : Constant
Frame rate : 23.976 (23976/1000) FPS
Color space : YUV
Chroma subsampling : 4:2:0
Bit depth : 8 bits
Scan type : Progressive
Bits/(Pixel*Frame) : 0.060
Stream size : 782 MiB (82%)

Audio #1
ID : 2
Format : AAC
Format/Info : Advanced Audio Codec
Format profile : LC
Codec ID : A_AAC
Duration : 1 h 49 min
Bit rate : 128 kb/s
Channel(s) : 2 channels
Channel positions : Front: L R
Sampling rate : 48.0 kHz
Frame rate : 46.875 FPS (1024 spf)
Compression mode : Lossy
Delay relative to video : -156 ms
Stream size : 100 MiB (10%)
Title : ExtraMovies.ws
Language : Hindi
Default : Yes
Forced : No

Audio #2
ID : 3
Format : AAC
Format/Info : Advanced Audio Codec
Format profile : HE-AAC / LC
Codec ID : A_AAC
Duration : 1 h 49 min
Bit rate : 96.0 kb/s
Channel(s) : 2 channels
Channel positions : Front: L R
Sampling rate : 48.0 kHz / 24.0 kHz
Frame rate : 23.438 FPS (1024 spf)
Compression mode : Lossy
Delay relative to video : -105 ms
Stream size : 75.2 MiB (8%)
Title : ExtraMovies.ws
Language : English
Default : No
Forced : No
Category>:Movies > HD
Lang:English  English
Total Size:813.37 MB
Info Hash:9cbe99337727e4565cfe7f6abaf97eb5aa9412c2
Added By:planB
Date Added:12-10-2017 12:18:30


Ratings:Not Yet Rated (Log in to rate it)


Tracker:
http://bigfoot1942.sektori.org:6969/announce

This Torrent also has backup trackers
URLSeedersLeechersCompleted
http://bigfoot1942.sektori.org:6969/announce000
http://tracker2.wasabii.com.tw:6969/announce000
http://tracker.opentrackr.org/announce000
http://announce.torrentsmd.com:6969/announce000
http://tracker.trackerfix.com/announce000
http://tracker.opentrackr.org/announce000


File List: 


Comments

No comments still posted

Bitcoin Donate: 19iHZVxSjDgjVnZti4zTAPN32J6YhD3C1z
tomtrueheart.com FaceBook
Page Generated In 0.004704 secs.
www.tomtrueheart.com -|- -|- RSS Feed -|- Feed Info