Sud-Coréen | Criminal Case | Prince of Persia: Las arenas del tiempo (2010)
Loading...
Login
Username:
Password:
[Signup]
[Recover Account]



Search





Torrent Details For "Mahakaali.S01E23.Mahadev's shocking decision.WEBRip.x264.KiSS.mp4"

Mahakaali.S01E23.Mahadev's shocking decision.WEBRip.x264.KiSS.mp4

Download torrent
Health:
Seeds: 3
Leechers: 0
Completed:
Last Checked: 12-10-2017 06:56:31

 


  

Torrent Description

If you like our Work Share this torrent with your Friends & Say Thanks..Seed a lot
& Like Our Page
www.facebook.com/KissToonTv



Mahakali Anth Hi Aarambh Hai

Synopsis :-

If there is one goddess in our mythology who is feared and revered at the same time, it is Kaali. She is the ultimate destroyer. She destroys limitations so that we can create. She destroys the negative, so the positive can lead to a new beginning. Watch the magic and enigma that makes Kaali, the mother of all goddesses.



Mahakaali.S01E23.Mahadev's shocking decision.WEBRip.x264.KiSS.mp4
Episode 23 | 07 Oct 17 |

Mahakaali decides to kill Shumbha and Nishumbha and arrives at their hideout. She kills Nishumbha and then decides to go after Shumbha. But Mahadev stops her from killing him and asks her to leave him alone. What is the reason behind his decision? How will Mahakaali react to this?














Quote:

Format                      : MPEG-4
Format profile              : Base Media
Codec ID                    : isom (isom/avc1)
File size                   : 382 MiB
Duration                    : 41 min 39 s
Overall bit rate mode       : Variable
Overall bit rate            : 1 282 kb/s
Encoded date                : UTC 2017-10-10 10:26:21
Tagged date                 : UTC 2017-10-10 10:26:21

Video
ID                          : 1
Format                      : AVC
Format/Info                 : Advanced Video Codec
Format profile              : [email protected]
Format settings             : CABAC / 8 Ref Frames
Format settings, CABAC      : Yes
Format settings, RefFrames  : 8 frames
Codec ID                    : avc1
Codec ID/Info               : Advanced Video Coding
Duration                    : 41 min 39 s
Bit rate                    : 1 182 kb/s
Maximum bit rate            : 4 300 kb/s
Width                       : 720 pixels
Height                      : 400 pixels
Display aspect ratio        : 16:9
Frame rate mode             : Constant
Frame rate                  : 25.000 FPS
Color space                 : YUV
Chroma subsampling          : 4:2:0
Bit depth                   : 8 bits
Scan type                   : Progressive
Bits/(Pixel*Frame)          : 0.164
Stream size                 : 352 MiB (92%)
Writing library             : x264 core 148 r2721 72d53ab
Encoding settings           : cabac=1 / ref=8 / deblock=1:0:0 / analyse=0x3:0x133 / me=umh / subme=9 / psy=1 / psy_rd=1.00:0.00 / mixed_ref=1 / me_range=16 / chroma_me=1 / trellis=2 / 8x8dct=1 / cqm=0 / deadzone=21,11 / fast_pskip=1 / chroma_qp_offset=-2 / threads=6 / lookahead_threads=1 / sliced_threads=0 / nr=0 / decimate=1 / interlaced=0 / bluray_compat=0 / constrained_intra=0 / bframes=3 / b_pyramid=2 / b_adapt=2 / b_bias=0 / direct=3 / weightb=1 / open_gop=0 / weightp=2 / keyint=250 / keyint_min=25 / scenecut=40 / intra_refresh=0 / rc_lookahead=60 / rc=crf / mbtree=1 / crf=18.0 / qcomp=0.60 / qpmin=0 / qpmax=69 / qpstep=4 / ip_ratio=1.40 / aq=1:1.00
Encoded date                : UTC 2017-10-10 10:26:21
Tagged date                 : UTC 2017-10-10 10:26:26

Audio
ID                          : 2
Format                      : AAC
Format/Info                 : Advanced Audio Codec
Format profile              : LC
Codec ID                    : mp4a-40-2
Duration                    : 41 min 39 s
Bit rate mode               : Variable
Bit rate                    : 96.0 kb/s
Maximum bit rate            : 113 kb/s
Channel(s)                  : 2 channels
Channel positions           : Front: L R
Sampling rate               : 44.1 kHz
Frame rate                  : 43.066 FPS (1024 SPF)
Compression mode            : Lossy
Stream size                 : 28.8 MiB (8%)
Language                    : Hindi
Encoded date                : UTC 2017-10-10 10:00:34
Tagged date                 : UTC 2017-10-10 10:26:26

Category>:TV > x264
Lang:Hindi  Hindi
Total Size:382.15 MB
Info Hash:fcade3a0e4fb6e0e2c884ef88713a2347dfdfd27
Added By:KissToonTv
Date Added:12-10-2017 06:49:47


Ratings:Not Yet Rated (Log in to rate it)


Tracker:
udp://eddie4.nl:6969/announce


File List: 


Comments

No comments still posted

Bitcoin Donate: 19iHZVxSjDgjVnZti4zTAPN32J6YhD3C1z
tomtrueheart.com FaceBook
Page Generated In 0.005793 secs.
www.tomtrueheart.com -|- -|- RSS Feed -|- Feed Info