The Scarpetta Factor | 9JKL S01E03 | big tits
Loading...
Login
Username:
Password:
[Signup]
[Recover Account]



Search





Torrent Details For "Mahakaali.S01E16.Parvati convinces Kartikeya to fight.WEBRip.720p.x264.KiSS.mp4"

Mahakaali.S01E16.Parvati convinces Kartikeya to fight.WEBRip.720p.x264.KiSS.mp4

Download torrent
Health:
Seeds: 8
Leechers: 23
Completed: 10 
Last Checked: 09-10-2017 07:27:40

 


Torrent Description

If you like our Work Share this torrent with your Friends & Say Thanks..Seed a lot
& Like Our Page
www.facebook.com/KissToonTv



Mahakali Anth Hi Aarambh Hai

Synopsis :-

If there is one goddess in our mythology who is feared and revered at the same time, it is Kaali. She is the ultimate destroyer. She destroys limitations so that we can create. She destroys the negative, so the positive can lead to a new beginning. Watch the magic and enigma that makes Kaali, the mother of all goddesses.



Mahakaali.S01E16.Parvati convinces Kartikeya to fight.WEBRip.720p.x264.KiSS.mp4
Episode 16 | 10 Sep 17 |

As Kartikeya gets into a fight with Tarakasur, Mahakaali arrives at the right time to save him. Parvati reveals the truth about Kartikeya being her son which leaves him shell-shocked. Parvati asks Kartikeya to go with her to Kailash to meet Mahadev. How will Kartikeya react to this shocking revelation?















Quote:

Format                      : MPEG-4
Format profile              : Base Media
Codec ID                    : isom (isom/avc1)
File size                   : 634 MiB
Duration                    : 42 min 40 s
Overall bit rate mode       : Variable
Overall bit rate            : 2 075 kb/s
Encoded date                : UTC 2017-10-08 11:04:28
Tagged date                 : UTC 2017-10-08 11:04:28

Video
ID                          : 1
Format                      : AVC
Format/Info                 : Advanced Video Codec
Format profile              : [email protected]
Format settings             : CABAC / 8 Ref Frames
Format settings, CABAC      : Yes
Format settings, RefFrames  : 8 frames
Codec ID                    : avc1
Codec ID/Info               : Advanced Video Coding
Duration                    : 42 min 40 s
Bit rate                    : 1 976 kb/s
Maximum bit rate            : 6 125 kb/s
Width                       : 1 280 pixels
Height                      : 720 pixels
Display aspect ratio        : 16:9
Frame rate mode             : Constant
Frame rate                  : 25.000 FPS
Color space                 : YUV
Chroma subsampling          : 4:2:0
Bit depth                   : 8 bits
Scan type                   : Progressive
Bits/(Pixel*Frame)          : 0.086
Stream size                 : 603 MiB (95%)
Writing library             : x264 core 148 r2721 72d53ab
Encoding settings           : cabac=1 / ref=8 / deblock=1:0:0 / analyse=0x3:0x133 / me=umh / subme=9 / psy=1 / psy_rd=1.00:0.00 / mixed_ref=1 / me_range=16 / chroma_me=1 / trellis=2 / 8x8dct=1 / cqm=0 / deadzone=21,11 / fast_pskip=1 / chroma_qp_offset=-2 / threads=6 / lookahead_threads=1 / sliced_threads=0 / nr=0 / decimate=1 / interlaced=0 / bluray_compat=0 / constrained_intra=0 / bframes=3 / b_pyramid=2 / b_adapt=2 / b_bias=0 / direct=3 / weightb=1 / open_gop=0 / weightp=2 / keyint=250 / keyint_min=25 / scenecut=40 / intra_refresh=0 / rc_lookahead=60 / rc=crf / mbtree=1 / crf=18.0 / qcomp=0.60 / qpmin=0 / qpmax=69 / qpstep=4 / ip_ratio=1.40 / aq=1:1.00
Encoded date                : UTC 2017-10-08 11:04:28
Tagged date                 : UTC 2017-10-08 11:04:32

Audio
ID                          : 2
Format                      : AAC
Format/Info                 : Advanced Audio Codec
Format profile              : LC
Codec ID                    : mp4a-40-2
Duration                    : 42 min 40 s
Bit rate mode               : Variable
Bit rate                    : 96.0 kb/s
Maximum bit rate            : 116 kb/s
Channel(s)                  : 2 channels
Channel positions           : Front: L R
Sampling rate               : 44.1 kHz
Frame rate                  : 43.066 FPS (1024 SPF)
Compression mode            : Lossy
Stream size                 : 29.0 MiB (5%)
Language                    : Hindi
Encoded date                : UTC 2017-10-08 10:07:19
Tagged date                 : UTC 2017-10-08 11:04:32

Category>:TV > HD
Lang:Hindi  Hindi
Total Size:633.54 MB
Info Hash:3ce7ca5b2f6a4b00f4edc9a8226f54cd30b1856a
Added By:KissToonTv
Date Added:08-10-2017 15:38:41


Ratings:Not Yet Rated (Log in to rate it)


Tracker:
udp://eddie4.nl:6969/announce


File List: 


Comments

No comments still posted

Bitcoin Donate: 19iHZVxSjDgjVnZti4zTAPN32J6YhD3C1z
tomtrueheart.com FaceBook
Page Generated In 0.005941 secs.
www.tomtrueheart.com -|- -|- RSS Feed -|- Feed Info