| [DefinitelyNotMe] Osomatsu-san S2 - 03 VOSTFR [1080p] mkv | Скачать MP3
Loading...
Login
Username:
Password:
[Signup]
[Recover Account]



Search





Torrent Details For "Mahakaali.S01E13.Mahakaali seeks vengeance.WEBRip.720p.x264.KiSS.mp4"

Mahakaali.S01E13.Mahakaali seeks vengeance.WEBRip.720p.x264.KiSS.mp4

Download torrent
Health:
Seeds: 10
Leechers: 23
Completed: 19 
Last Checked: 09-10-2017 07:27:51

 


  

Torrent Description

If you like our Work Share this torrent with your Friends & Say Thanks..Seed a lot
& Like Our Page
www.facebook.com/KissToonTv



Mahakali Anth Hi Aarambh Hai

Synopsis :-

If there is one goddess in our mythology who is feared and revered at the same time, it is Kaali. She is the ultimate destroyer. She destroys limitations so that we can create. She destroys the negative, so the positive can lead to a new beginning. Watch the magic and enigma that makes Kaali, the mother of all goddesses.



Mahakaali.S01E13.Mahakaali seeks vengeance.WEBRip.720p.x264.KiSS.mp4
Episode 13 | 02 Sep 17 |

Tarakasur destroys the divine light that could give birth to Parvati's and Mahadev's offspring. Distressed by her great loss, Mahakaali vows to take revenge. But Mahadev had once granted Tarakasur the boon that he could only be killed by Mahadev's offspring. How will Mahakaali exact her vengeance on Tarakasur?














Quote:

Format                      : MPEG-4
Format profile              : Base Media
Codec ID                    : isom (isom/avc1)
File size                   : 698 MiB
Duration                    : 44 min 21 s
Overall bit rate mode       : Variable
Overall bit rate            : 2 200 kb/s
Encoded date                : UTC 2017-10-08 06:36:28
Tagged date                 : UTC 2017-10-08 06:36:28

Video
ID                          : 1
Format                      : AVC
Format/Info                 : Advanced Video Codec
Format profile              : [email protected]
Format settings             : CABAC / 8 Ref Frames
Format settings, CABAC      : Yes
Format settings, RefFrames  : 8 frames
Codec ID                    : avc1
Codec ID/Info               : Advanced Video Coding
Duration                    : 44 min 21 s
Bit rate                    : 2 100 kb/s
Maximum bit rate            : 7 072 kb/s
Width                       : 1 280 pixels
Height                      : 720 pixels
Display aspect ratio        : 16:9
Frame rate mode             : Constant
Frame rate                  : 25.000 FPS
Color space                 : YUV
Chroma subsampling          : 4:2:0
Bit depth                   : 8 bits
Scan type                   : Progressive
Bits/(Pixel*Frame)          : 0.091
Stream size                 : 666 MiB (95%)
Writing library             : x264 core 148 r2721 72d53ab
Encoding settings           : cabac=1 / ref=8 / deblock=1:0:0 / analyse=0x3:0x133 / me=umh / subme=9 / psy=1 / psy_rd=1.00:0.00 / mixed_ref=1 / me_range=16 / chroma_me=1 / trellis=2 / 8x8dct=1 / cqm=0 / deadzone=21,11 / fast_pskip=1 / chroma_qp_offset=-2 / threads=6 / lookahead_threads=1 / sliced_threads=0 / nr=0 / decimate=1 / interlaced=0 / bluray_compat=0 / constrained_intra=0 / bframes=3 / b_pyramid=2 / b_adapt=2 / b_bias=0 / direct=3 / weightb=1 / open_gop=0 / weightp=2 / keyint=250 / keyint_min=25 / scenecut=40 / intra_refresh=0 / rc_lookahead=60 / rc=crf / mbtree=1 / crf=18.0 / qcomp=0.60 / qpmin=0 / qpmax=69 / qpstep=4 / ip_ratio=1.40 / aq=1:1.00
Encoded date                : UTC 2017-10-08 06:36:28
Tagged date                 : UTC 2017-10-08 06:36:39

Audio
ID                          : 2
Format                      : AAC
Format/Info                 : Advanced Audio Codec
Format profile              : LC
Codec ID                    : mp4a-40-2
Duration                    : 44 min 21 s
Bit rate mode               : Variable
Bit rate                    : 96.0 kb/s
Maximum bit rate            : 132 kb/s
Channel(s)                  : 2 channels
Channel positions           : Front: L R
Sampling rate               : 44.1 kHz
Frame rate                  : 43.066 FPS (1024 SPF)
Compression mode            : Lossy
Stream size                 : 30.4 MiB (4%)
Language                    : Hindi
Encoded date                : UTC 2017-10-08 05:34:49
Tagged date                 : UTC 2017-10-08 06:36:39

Category>:TV > HD
Lang:Hindi  Hindi
Total Size:697.84 MB
Info Hash:5edd63fa0c796fb15d21cf2fc4e5f07de1b3bb97
Added By:KissToonTv
Date Added:08-10-2017 15:20:14


Ratings:Not Yet Rated (Log in to rate it)


Tracker:
udp://eddie4.nl:6969/announce


File List: 


Comments

No comments still posted

Bitcoin Donate: 19iHZVxSjDgjVnZti4zTAPN32J6YhD3C1z
tomtrueheart.com FaceBook
Page Generated In 0.012104 secs.
www.tomtrueheart.com -|- -|- RSS Feed -|- Feed Info