David Ramsey | Blade Runner 2049 En Streaming gratuit | Voir ce film
Loading...
Login
Username:
Password:
[Signup]
[Recover Account]



Search





Torrent Details For "Marvels.Inhumans.S01E01E02.HDTV.x264.E-subs.KiSS.mkv"

Marvels.Inhumans.S01E01E02.HDTV.x264.E-subs.KiSS.mkv

Download torrent
Health:
Seeds: 90
Leechers: 49
Completed: 1,730 
Last Checked: 07-10-2017 14:08:51

 


  

Torrent Description

If you like our Work Share this torrent with your Friends & Say Thanks..Seed a lot
& Like Our Page
www.facebook.com/KissToonTv







Summary : An isolated community of superhumans fight to protect themselves.















General
Unique ID                                : 213770448762853321935180857244529883874 (0xA0D2B0DB8770A0C0AEEEC761311E7AE2)
Complete name                            : C:\Users\HolySpark\Downloads\Marvels.Inhumans.S01E01E02.HDTV.x264.E-subs.KiSS.mkv
Format                                   : Matroska
Format version                           : Version 4 / Version 2
File size                                : 694 MiB
Duration                                 : 1 h 22 min
Overall bit rate                         : 1 172 kb/s
Encoded date                             : UTC 2017-10-01 16:25:17
Writing application                      : mkvmerge v16.0.0 ('Protest') 64-bit
Writing library                          : libebml v1.3.5 + libmatroska v1.4.8

Video
ID                                       : 1
Format                                   : AVC
Format/Info                              : Advanced Video Codec
Format profile                           : [email protected]
Format settings                          : CABAC / 8 Ref Frames
Format settings, CABAC                   : Yes
Format settings, RefFrames               : 8 frames
Codec ID                                 : V_MPEG4/ISO/AVC
Duration                                 : 1 h 22 min
Bit rate                                 : 1 019 kb/s
Width                                    : 736 pixels
Height                                   : 416 pixels
Display aspect ratio                     : 16:9
Frame rate mode                          : Constant
Frame rate                               : 23.976 (24000/1001) FPS
Color space                              : YUV
Chroma subsampling                       : 4:2:0
Bit depth                                : 8 bits
Scan type                                : Progressive
Bits/(Pixel*Frame)                       : 0.139
Stream size                              : 603 MiB (87%)
Writing library                          : x264 core 148 r2721 72d53ab
Encoding settings                        : cabac=1 / ref=8 / deblock=1:0:0 / analyse=0x3:0x133 / me=umh / subme=9 / psy=1 / psy_rd=1.00:0.00 / mixed_ref=1 / me_range=16 / chroma_me=1 / trellis=2 / 8x8dct=1 / cqm=0 / deadzone=21,11 / fast_pskip=1 / chroma_qp_offset=-2 / threads=6 / lookahead_threads=1 / sliced_threads=0 / nr=0 / decimate=1 / interlaced=0 / bluray_compat=0 / constrained_intra=0 / bframes=3 / b_pyramid=2 / b_adapt=2 / b_bias=0 / direct=3 / weightb=1 / open_gop=0 / weightp=2 / keyint=250 / keyint_min=23 / scenecut=40 / intra_refresh=0 / rc_lookahead=60 / rc=crf / mbtree=1 / crf=18.0 / qcomp=0.60 / qpmin=0 / qpmax=69 / qpstep=4 / ip_ratio=1.40 / aq=1:1.00
Language                                 : English
Default                                  : Yes
Forced                                   : No

Audio
ID                                       : 2
Format                                   : AAC
Format/Info                              : Advanced Audio Codec
Format profile                           : LC
Codec ID                                 : A_AAC-2
Duration                                 : 1 h 22 min
Bit rate                                 : 151 kb/s
Channel(s)                               : 2 channels
Channel positions                        : Front: L R
Sampling rate                            : 48.0 kHz
Frame rate                               : 46.875 FPS (1024 SPF)
Compression mode                         : Lossy
Delay relative to video                  : 9 ms
Stream size                              : 89.1 MiB (13%)
Language                                 : English
Default                                  : No
Forced                                   : No

Text
ID                                       : 3
Format                                   : UTF-8
Codec ID                                 : S_TEXT/UTF8
Codec ID/Info                            : UTF-8 Plain Text
Duration                                 : 1 h 21 min
Bit rate                                 : 39 b/s
Count of elements                        : 879
Stream size                              : 23.6 KiB (0%)
Language                                 : English
Default                                  : No
Forced                                   : Yes


Category>:TV > HD
Lang:English  English
Total Size:693.76 MB
Info Hash:d9398fa888302778b1625faa1f1611b14bca34cf
Added By:KissToonTv
Date Added:07-10-2017 14:08:13


Ratings:Not Yet Rated (Log in to rate it)


Tracker:
udp://tracker.torrent.eu.org:451/announce


File List: 


Comments

No comments still posted

Bitcoin Donate: 19iHZVxSjDgjVnZti4zTAPN32J6YhD3C1z
tomtrueheart.com FaceBook
Page Generated In 0.005035 secs.
www.tomtrueheart.com -|- -|- RSS Feed -|- Feed Info